20 октября, суббота 09:52
Bankir.Ru

Объявление

Свернуть
Пока нет объявлений.

WinCor - системный desktop

Свернуть
X
  • Фильтр
  • Время
  • Показать
Очистить всё
новые сообщения

  • WinCor - системный desktop

    Имеется банкома WinCor 2100 на нем крутятся bmp и avi, принято решение об изменении скринов на скрины в розоватых цветах.
    При смене bmp на avi проскакивыет на секунду синий виндовый экран. При этом видно как сворачивается Панель задач. поскольку экран синий, то это резко бросается в глаза. Есть мнение, что это "системный десктоп" винды.
    Банальное изменение цвета рабочего стола не помогает.
    Что делать?

  • #2
    he_say
    Давайте так:
    1. Были - установки\настройки.
    2. Стали - установки\настройки.
    3. Что получилось\не нравится.
    Наша жизнь состоит из цитат. Лишь немногим удается написать что-то своё. (с)

    Комментарий


    • #3
      Показ AVI файлов как экранов NDC/DDC реализован в винкоровском софте средствами внешнего процесса CCMciPly.exe. Процесс поднимается, когда возникает необходимость показа подобного экрана и завершается, когда надо переходить к показу следующей графики. Появление "синих" виндовых экранов и проскакивание панели задач - это побочный эффект такой технологии. Обычно, если в экране "Please insert your card" (отображаемом в состоянии A )используется ТОЛЬКО 1 AVI файл, артефактов быть не должно. Если же используется помесь бмп и ави - увы.

      Комментарий


      • #4
        Долго бились с такой проблемой, но победить так и не удалось
        имхо есть два выхода: раскадрировать авишку на бмп и вставить их друг за другом.
        А еще можно поставить тулбару автохайд, и дестоп заменить на соотв. картинку, заранее убрав все иконки. Тогда будет не так заметнее.

        Если у кого то есть какие решения - поделитесь! Будет интересно.

        Комментарий


        • #5
          Решение нашлось:
          ветка реестра [HKEY_LOCAL_MACHINE\SOFTWARE\Wincor Nixdorf\ProTopas\CurrentVersion\LYNXCI\SCREEN]

          "BACKGROUND_COLOR"="ххх,ххх,ххх" - цвет фона и подложки, указывается не в 16-тиричном, а в 10-ом коде

          Внимание! Это для винкоровского софта!!!

          Комментарий


          • #6
            Монтер_Мечников
            Проще тогда стоп кадры к авику приклеить..., со статичной рекламой и запускать один *.avi файл.

            Комментарий


            • #7
              Или я что то не понял ...

              Когда рекламка крутится все ясно, а вот когда клиент уже вводит чего-то то на весь экран авишку не поставишь. Клиент иначе не увидит что ввел.
              Да дело у нас в другом было. Картинка была фоном, а в углу крутилась небольшая авишка. И при переключении экранов на этом месте на доли секунды появлялся белый квадрат Что сильно раздражает

              Комментарий


              • #8
                Сегодня начали играть с файлами AVI,
                есть проблема, во время заставки крутятся поочерёдно BMP и AVI,
                но при этом порождается большое количество процессов ccMciPly.exe, почему они не убиваются?
                Может я что-то не так делаю?

                Комментарий


                • #9
                  2Pimbler: Была такая проблема..Пережмите авишку другим кодеком...Не может его обработать в положенное время...

                  Комментарий


                  • #10
                    AntikVar,
                    Мы использовали MPEG4
                    Может есть конкретные знания?

                    Какой кодек video (Желательно ещё и битрейт)
                    Какой кодек Аудио (Желательно ещё и битрейт)

                    Согласитесь, что для экспериментов поле не паханное!
                    Отвечу сам!
                    Вот MediaInfo:

                    General
                    Complete name : G:\reklama_mov1.mpg
                    Format : MPEG-PS
                    File size : 3.05 MiB
                    Duration : 10s 0ms
                    Overall bit rate : 2 562 Kbps

                    Video
                    ID : 224 (0xE0)
                    Format : MPEG Video
                    Format version : Version 1
                    Format settings, BVOP : No
                    Format settings, Matrix : Default
                    Duration : 10s 0ms
                    Bit rate mode : Variable
                    Bit rate : 2 319 Kbps
                    Width : 640 pixels
                    Height : 480 pixels
                    Display aspect ratio : 5:4
                    Frame rate : 25.000 fps
                    Color space : YUV
                    Bit depth : 8 bits
                    Scan type : Progressive
                    Bits/(Pixel*Frame) : 0.302
                    Stream size : 2.77 MiB (91%)

                    Audio
                    ID : 192 (0xC0)
                    Format : MPEG Audio
                    Format version : Version 1
                    Format profile : Layer 3
                    Mode : Joint stereo
                    Mode extension : MS Stereo
                    Duration : 9s 874ms
                    Bit rate mode : Constant
                    Bit rate : 192 Kbps
                    Channel(s) : 2 channels
                    Sampling rate : 44.1 KHz
                    Stream size : 231 KiB (7%)
                    Последний раз редактировалось Pimbler; 05.08.2010, 13:37.

                    Комментарий


                    • #11
                      2Pimbler: Нет, к сожалению конкретных знаний у меня по кодекам нет.... Мы использовали стандартный DivX...Попробуйте..Все экпириенс же!

                      Комментарий


                      • #12
                        Пробовал разные кодеки, лучше всех показался XVid. На банкомат ставил родной xvid- декодер. Всё работало...без збоев и артефактов.
                        Контент скрина состоит из отображения статичного первого кадра и отображения видеоролика
                        "CONTENTS"="\\1bP9000\\1bP9010"

                        Комментарий


                        • #13
                          Не знаю, у нас испокон веков крутится 10 Мб авишный ролик и картинки. Раньше были bmp сейчас pcx, никаких проблем не замечал даже на старых банкоматах. Везде стоит автоубирание панели задач и убирается галочка с "поверх остальных окон".

                          Комментарий

                          Пользователи, просматривающие эту тему

                          Свернуть

                          Присутствует 1. Участников: 0, гостей: 1.

                          Обработка...
                          X